WK綜合論壇, WK综合论坛

查看:100 回復:3 發表於 2020-5-23 23:02:54
本主題由 212love 於 2020-5-25 11:30 解除高亮
累計簽到︰1998 天
連續簽到︰1 天
發表於 2020-5-23 08:48:33 | 顯示全部樓層 |閱讀模式
VIP精品區,資源無限好賺金任務區,輕松賺金幣
加入VIP,享受高級特權宣傳賺金又升級,超級棒

寶劍與權杖 The.Warrior.Queen.Of.Jhansi., 2019.[MKV / 6.78G] [複製鏈接]

影視分享
分類: 電影
題材: 劇情 
地區: 英國 
語言: 英语 
格式: MKV 
年份: 2019
資源: BT资源
1.jpg
- @9 j7 w. P1 e, X3 p+ _
' D) }2 f. f) J& o/ ?. O! o; L◎译  名 宝剑与权杖 / Swords and Scepters / Swords and Sceptres: The Rani of Jhansi) J& I: |6 r! R7 o+ M6 x/ m
◎片  名 The Warrior Queen of Jhansi" q. i+ E- o3 M( o2 |" E
◎年  代 20194 S1 S$ M2 N/ H+ v- [
◎产  地 英国% W* \& Z. [1 V5 R  g2 I0 F
◎类  别 剧情
! l( k* ?5 [( v; T, `. F5 s◎语  言 英语- \6 N& ?: Y5 K' l" A
◎上映日期 2019-03-10(温哥华女性电影节)/ n7 ~' ?& s* h  M. s' o; Y  Z. R
◎IMDb评分 3.5/10 from 245 users4 q+ F' U0 _& v7 p* E
◎IMDb链接 https://www.imdb.com/title/tt6916348
- _. A1 l) [; [0 u: E◎豆瓣评分 0/10 from 0 users2 l. \# s! Q$ }$ u; l1 h
◎豆瓣链接 https://movie.douban.com/subject/27191803/
# E/ M1 R5 u# i1 j2 \4 ?9 E  Q◎片  长 103分钟; d& G* u/ J. z- E9 O" G; ?
◎导  演 Swati Bhise
1 ?+ a: C' \9 [◎编  剧 Devika Bhise / Swati Bhise / Olivia Emden
6 _$ ~2 J5 q. d, X$ d◎主  演 鲁伯特·艾弗雷特 Rupert Everett2 c. G/ ~. k! F# ]" R5 l
      德里克·雅各比 Derek Jacobi' C# m0 x7 P! b$ I
      乔迪·梅 Jodhi May
/ a4 t( d! o( ]6 ^      内森奈尔·帕克 Nathaniel Parker" l9 a* d# k* c" }. h
      德维卡·贝斯 Devika Bhise! [$ u2 f4 A. `) X
      Ben Lamb  A/ f2 ~; J3 t% g) f4 k  p

% }4 i9 ^) U% Z7 \2 I7 R1 x' }* j
, U. v, X: X# y+ s◎标  签 印度 | 英国 | 2019年上海国际电影节 | 历史 | DerekJacobi | 剧情 | 2019SIFF | 首选
: z$ W( n! X& R, F/ M0 K$ l2 M
- ^( @" C/ T3 X# V◎简  介. z9 p6 s- W$ w$ [9 {6 d

8 s  Y9 _! W0 F2 ^) @' Q" p. p  鲁伯特·艾弗雷特、德里克·雅各比加盟[宝剑与权杖](Swords and Scepters,暂译)。主演德维卡·贝斯、乔迪·梅、内森奈尔·帕克等。印度导演斯瓦蒂·贝斯执导,故事聚焦印度“詹西女王”拉克希米巴伊1857年反抗英国东印度公司的起义行动。艾弗雷特、雅各比分饰休·罗斯爵爷、帕默斯顿勋爵。. T  w8 e7 o* |" O
Video9 C4 r+ Q8 U  \0 F0 b5 c" h4 c9 ?  F) E
ID : 1
8 S; J+ _* B9 ?Format : AVC- p$ x0 X# c. _1 e
Format/Info : Advanced Video Codec0 y# `% B! x9 R) e. u5 f3 X
Format profile : [email protected]
, d2 A) x2 y3 P! v' n1 j& W0 x3 lFormat settings : CABAC / 4 Ref Frames- G5 T' C) ^, y/ X/ j- d
Format settings, CABAC : Yes
, g: R9 c4 f) o5 |2 G8 eFormat settings, Reference frames : 4 frames
7 @/ n- u( f' N, a3 Z. F$ iCodec ID : V_MPEG4/ISO/AVC& w$ m8 S% i3 f# M
Duration : 1 h 42 min5 E  |/ S6 X' w3 A# B2 C7 y+ K
Bit rate mode : Constant! M% d! _! m" f
Bit rate : 8 813 kb/s
/ F4 J0 \! {8 f1 HNominal bit rate : 10 000 kb/s
" C" i5 q( v) a+ i/ u, RWidth : 1 920 pixels4 V8 j' V" c% a( ~% O) L
Height : 800 pixels6 t" F$ f+ S2 b$ b
Display aspect ratio : 2.40:1
* k) a9 M% C1 s; m0 iFrame rate mode : Constant2 ^/ Q# q9 f% q0 p/ \, w  \
Frame rate : 23.976 (24000/1001/189150) FPS) R; i, Q& E6 a8 P# e; J6 W* B
Color space : YUV
! o/ A+ m6 J0 U* P  U" tChroma subsampling : 4:2:0
' d  [# w6 j9 p2 l$ b/ y, XBit depth : 8 bits
, d9 c% F) R: h; J% t7 d; m8 V7 fScan type : Progressive9 W: k$ O( N$ H1 q0 Q
Bits/(Pixel*Frame) : 0.239: A% Z0 Q; q3 y9 b
Stream size : 6.32 GiB (93%)
* h4 O3 {# ?1 |- MDefault : Yes: \* ?( H3 \& ^& t6 o
Forced : No
# [* T( ], H# cColor range : Limited
" c2 V: {1 V( `, C+ RColor primaries : BT.709
% S% f$ W5 j% i5 Z8 UTransfer characteristics : BT.709: J' L. F' W& {+ b
Matrix coefficients : BT.709% L- v( y/ t! x) Q) h
8 [4 @* d* n3 R' x/ a- e2 v
Audio( l! U# \$ C* F) h: Z! u% W9 `
ID : 2
6 G- D# V1 n& q+ aFormat : E-AC-3, D1 h7 O! f( M/ p. K
Format/Info : Enhanced AC-39 |, `! U$ e0 u
Commercial name : Dolby Digital Plus
% t8 F$ Q6 }! Q& e! W5 y' b4 _Codec ID : A_EAC3* J* ^2 _9 I9 H7 j* }5 R
Duration : 1 h 42 min- W' `* \. T, ]6 f& n5 r
Bit rate mode : Constant% y5 K5 J' [" M2 x% I
Bit rate : 640 kb/s: \. {  R" v+ j  h, v1 s
Channel(s) : 6 channels& t9 U! z- n' G& O  ?
Channel layout : L R C LFE Ls Rs. U8 p1 F' }5 v+ m$ e* ?9 z
Sampling rate : 48.0 kHz
6 g. O' b" _9 L: @Frame rate : 31.250 FPS (1536 SPF)
9 I/ h0 s) x  [2 o5 [9 {5 RCompression mode : Lossy9 }2 O1 _/ X( [% w* w7 E' `; Q
Stream size : 470 MiB (7%)1 [) p6 _9 e! e, _* ^1 w: U
Language : English$ j8 \& ]5 W+ j* H- D- z
Service kind : Complete Main- @% Q3 v+ b7 p# {" [# }9 P6 @( P
Default : Yes
# i: r( O8 ]+ Q4 V. MForced : No* E2 H& a. v6 x% q; L2 b

0 \% t) A  Z5 {" v7 zText #1) L- O4 @% z$ l/ _$ b
ID : 35 H; M1 h5 ?, N
Format : UTF-81 W- [3 |6 W) T% U* `
Codec ID : S_TEXT/UTF8& A% ]- |$ @. @: T
Codec ID/Info : UTF-8 Plain Text
: o* g: t; L" B, _! x! T8 RDuration : 1 h 35 min& z+ P/ V  l- ]% h
Bit rate : 46 b/s, `) C/ m" b% O4 `2 {2 l  G: |, c
Count of elements : 10404 ?$ B6 p: n3 ]# @# b
Stream size : 33.0 KiB (0%)& q5 P- M2 t4 v' U7 A
Language : English
- i; Q( m6 u6 \Default : No" q! U0 G) f/ u  d: L- F: \
Forced : No( X  o! @  h! J2 d) P! W

, N1 i4 w$ N/ U9 aText #2/ S3 X& X( {/ A1 Y. W
ID : 4
2 G5 c5 e+ [' j$ \Format : UTF-8
  U7 ~6 i$ W# i  K: `Codec ID : S_TEXT/UTF8
* G0 C: F7 m, SCodec ID/Info : UTF-8 Plain Text, n9 j3 l1 z; X0 m9 t! Y
Duration : 1 h 35 min
  L' U& a& i; u  gBit rate : 53 b/s
  Z# @+ q' p+ MCount of elements : 1259" h$ Y$ N2 n9 b6 ~! k. p
Stream size : 37.4 KiB (0%)' C1 S: O( P8 O5 s4 z3 M& h
Title : SDH
( {: n0 ~1 n9 O$ u6 i/ z5 aLanguage : English# V% k$ N* S2 d4 L# F2 B4 g' Q
Default : No% @  n+ q7 U9 v, ?) |7 e) N" L
Forced : No

- p$ \" d+ i+ \% ^" }0 h; }6 L7 X$ B6 S0 @) X# M; s* y' f

# ^! K) g7 i# B4 [

寶劍與權杖. MKV.torrent

34.46 KB, 下載次數: 8

累計簽到︰2 天
連續簽到︰1 天
發表於 2020-5-23 09:46:01 | 顯示全部樓層
VIP精品區,資源無限好賺金任務區,輕松賺金幣
加入VIP,享受高級特權宣傳賺金又升級,超級棒
ddddddddddddddddddddddddddddddddddddd
累計簽到︰1240 天
連續簽到︰29 天
發表於 2020-5-23 10:09:10 | 顯示全部樓層
感謝大大的辛勞分享!我會繼續在WK關注大大的文章!
累計簽到︰1 天
連續簽到︰1 天
發表於 2020-5-23 23:02:54 | 顯示全部樓層
Thank you for sharing.

回復樓主 親!! 現在是後半夜!妳失眠啦?餓啦?通宵加班?還是想WK啦?

 分享同時學會感恩,一句感謝的話語,就是最大的支持!  歡迎交流討論
您需要登錄後才可以回帖 登錄 | 立即注册

本版積分規則

c重要聲明:本論壇是以即時上載言論的方式運作,WK論壇對所有言論的真實性、立場及版權等,不負任何法律責任。而一切言論只代表發佈者個人意見,並非本網站之立場,讀者及用戶務必自行判斷內容之真實性。 由於本論壇受到「即時上載言論」運作方式所規限,故不能完全監察所有言論,若讀者及用戶發現有內容出現「真實性、立場及版權」等問題,請聯絡我們:[email protected]論壇有權刪除任何言論(刪除前或不會作事先警告及通知)| SiteMap[網站地圖]

發表新帖 返回頂部